#TITLE:OH EM GEE!!!;
#SUBTITLE:Sung By MrZombie;
#ARTIST:Burningpoo / MrZombie;
#TITLETRANSLIT:;
#SUBTITLETRANSLIT:;
#ARTISTTRANSLIT:;
#CREDIT:;
#BANNER:OH EM GEE!!!.jpg;
#BACKGROUND:OH EM GEE!!!-bg.jpg;
#LYRICSPATH:;
#CDTITLE:!maczombieTitle.png;
#MUSIC:OH EM GEE!!!.mp3;
#OFFSET:-0.040;
#SAMPLESTART:8.531;
#SAMPLELENGTH:12.000;
#SELECTABLE:YES;
#BPMS:0.000=140.000;
#STOPS:;
#BGCHANGES:;
// cache tags:
#FIRSTBEAT:0.000;
#LASTBEAT:56.000;
#SONGFILENAME:Songs/Music V.I.P ^_^/OMG!!1!1!one/OH EM GEE!!!.sm;
#HASMUSIC:1;
#HASBANNER:1;
#MUSICLENGTH:29.204;
// end cache tags

//---------------dance-single - ----------------
#NOTES:
     dance-single:
     :
     Hard:
     5:
     0.670,0.787,1.000,0.000,0.565,101.000,36.000,0.000,0.000,0.000:
0000
0000
0000
0000
,
1001
0011
0110
1100
,
0110
0101
1010
0101
,
1001
1100
0110
0011
,
0110
0101
1010
1001
,
0110
1100
0011
0110
,
1001
0110
0011
0110
0101
1100
0110
1010
,
0101
0110
0101
1001
1100
0110
1001
0011
,
1000
0100
0010
0001
0100
0010
1000
0010
0100
0001
0010
0100
1000
0010
0100
0010
,
0000
0000
0000
0000
,
0000
0000
0000
0000
0000
0000
0000
0000
0000
0000
0000
0000
0000
0000
0000
1000
,
0100
0010
1000
0010
0001
0100
0010
1000
0010
0100
0001
1000
0001
0100
0001
0010
,
0100
0010
0001
0100
0010
1000
0010
0100
0001
1000
0001
0100
0001
0010
0100
1000
,
0100
0010
0001
1000
0001
0100
0010
1000
0001
1000
0010
0100
0010
1000
0100
0010
;

//---------------dance-single - ----------------
#NOTES:
     dance-single:
     :
     Medium:
     4:
     0.372,0.431,0.068,0.034,0.000,73.000,2.000,1.000,0.000,0.000:
1000
0100
0020
0000
0000
0000
0030
0000
,
0001
1000
0100
0010
,
0001
1000
0100
0010
,
0100
0010
0100
1000
,
0100
0010
0100
0001
,
0010
0100
0010
0100
,
0001
0010
0100
0010
0100
1000
0100
0010
,
0100
0010
0001
0010
0100
0010
0001
0010
,
0001
0100
1000
0100
0010
0001
0010
0100
,
1001
0000
0000
0000
,
0000
0000
0000
0000
,
1000
0100
0010
0100
1000
0100
0010
0001
,
0100
0010
0100
1000
0100
0010
0100
0010
,
0001
0010
1000
0100
0010
0100
0010
1000
,
0101
0000
0000
0000
;

//---------------dance-single - Copied from----------------
#NOTES:
     dance-single:
     Copied from:
     Easy:
     2:
     0.186,0.240,0.068,0.000,0.000,36.000,2.000,0.000,0.000,0.000:
0000
0000
0000
0000
,
0001
0000
1000
0000
,
0001
0000
0100
0000
,
0010
0000
0100
0000
,
0001
0000
1000
0000
,
0010
0000
0100
0000
,
0001
0100
0010
1000
,
0010
0001
0100
0001
,
0010
1000
0010
0100
,
1001
0000
0000
0000
,
0000
0000
0000
0000
,
1000
0010
1000
0010
,
0001
1000
0010
0100
,
0001
1000
0100
0010
,
0101
0000
0000
0000
;
